Overboard | FakeSpy Is Back as Part of New SmiShing Campaign, Adds New Features | Watch movie
[Login] or [Signup]
Login
Username:
Password:
[Signup]
[Recover Account]


Poll


You must be logged in to view polls



Torrent Details For "The Mummy 2017 720p BluRay x264 AAC 5.1 ESub-Hon3y"

The Mummy 2017 720p BluRay x264 AAC 5.1 ESub-Hon3y

Download this torrent | Magnet Download
Health:
Seeds: 0
Leechers: 6
Completed:
Last Checked: 07-10-2018 05:01:20
External Torrent
Update Stats
Download Magnet


Poster


Watch-Free-HD     Download

Details
Name:The Mummy 2017 720p BluRay x264 AAC 5.1 ESub-Hon3y
Description:
The Mummy 2017 720p BluRay x264 AAC 5.1 ESub-Hon3y


Format                      : Matroska
Format version              : Version 4 / Version 2
File size                   : 1.07 GiB
Duration                    : 1 h 50 min
Overall bit rate            : 1 394 kb/s
Movie name                  : The Mummy 2017-Hon3y
 

Video
ID                          : 1
Format                      : AVC
Format/Info                 : Advanced Video Codec
Format profile              : [email protected]
Format settings, CABAC      : Yes
Format settings, RefFrames  : 8 frames
Codec ID                    : V_MPEG4/ISO/AVC
Duration                    : 1 h 50 min
Bit rate                    : 1 200 kb/s
Width                       : 1 280 pixels
Height                      : 536 pixels
Display aspect ratio        : 2.40:1
Frame rate mode             : Constant
Frame rate                  : 23.976 (24000/1001) FPS


Audio
ID                          : 2
Format                      : AAC
Format/Info                 : Advanced Audio Codec
Format profile              : LC
Codec ID                    : A_AAC
Duration                    : 1 h 50 min
Bit rate                    : 192 kb/s
Channel(s)                  : 6 channels
Channel positions           : Front: L C R, Side: L R, LFE
Sampling rate               : 48.0 kHz
Frame rate                  : 46.875 FPS (1024 SPF)
Compression mode            : Lossy
Delay relative to video     : 9 ms
Stream size                 : 151 MiB (14%)
Language                    : English
Default                     : Yes
Forced                      : No

Text #1
ID                          : 3
Format                      : UTF-8
Codec ID                    : S_TEXT/UTF8
Codec ID/Info               : UTF-8 Plain Text
Duration                    : 1 h 36 min
Bit rate                    : 41 b/s
Count of elements           : 1081
Stream size                 : 29.4 KiB (0%)
Language                    : English
Default                     : Yes
Forced                      : No

Text #2
ID                          : 4
Format                      : UTF-8
Codec ID                    : S_TEXT/UTF8
Codec ID/Info               : UTF-8 Plain Text
Duration                    : 1 h 49 min
Bit rate                    : 39 b/s
Count of elements           : 1079
Stream size                 : 31.7 KiB (0%)
Language                    : French
Default                     : No
Forced                      : No

Text #3
ID                          : 5
Format                      : UTF-8
Codec ID                    : S_TEXT/UTF8
Codec ID/Info               : UTF-8 Plain Text
Duration                    : 1 h 40 min
Bit rate                    : 41 b/s
Count of elements           : 1089
Stream size                 : 30.2 KiB (0%)
Language                    : Spanish
Default                     : No
Forced                      : No

Menu
00:00:00.000                : en:00:00:00.000
00:08:18.707                : en:00:08:18.707
00:13:18.923                : en:00:13:18.923
00:19:31.462                : en:00:19:31.462
00:24:40.145                : en:00:24:40.145
00:28:54.107                : en:00:28:54.107
00:35:41.389                : en:00:35:41.389
00:39:36.040                : en:00:39:36.040
00:47:00.067                : en:00:47:00.067
00:50:57.638                : en:00:50:57.638
00:56:49.740                : en:00:56:49.740
01:00:43.849                : en:01:00:43.849
01:08:58.009                : en:01:08:58.009
01:16:03.851                : en:01:16:03.851
01:19:38.440                : en:01:19:38.440
01:23:16.408                : en:01:23:16.408
01:26:26.848                : en:01:26:26.848
01:33:34.943                : en:01:33:34.943
01:37:02.984                : en:01:37:02.984
01:39:47.982                : en:01:39:47.982

         
Category:Movies > 720P Bluray
Lang:English  English
Total Size:1.08 GB
Info Hash:8149b8d3fb870caaaf16083bd7f507bbddc87a81
Added By:Hon3y
Date Added:30-08-2017 14:28:31
Views:280
Hits:64

Download Torrent

Ratings:Not Yet Rated (Log in to rate it)


Tracker:
http://ipv4.tracker.harry.lu/announce

This Torrent also has backup trackers
URLSeedersLeechersCompleted
http://ipv4.tracker.harry.lu/announce131338
http://ipv4.tracker.harry.lu:80/announce131338
http://opentracker-milanesi.rhcloud.com/announce13100
http://t.nyaatracker.com/announce020
http://tracker.devil-torrents.pl:80/announce1590
http://tracker.devil-torrents.pl/announce1590
http://open.kickasstracker.com/announce15110
http://opentracker-milanesi.rhcloud.com:80/announce1580
http://open.kickasstracker.com:443/announce15110
http://opentracker-milanesi.rhcloud.com:443/announce1580
http://t.nyaatracker.com:80/announce020


File List: 


Comments

No comments still posted

Powered by 10 Hamsters v2-svn -|- Page Generated In 1.390062 secs.
-|- RSS FEED
Theme By: Nikkbu