Black Earth Rising - Season 1 | Más detalles | American Fright Fest
[Login] or [Signup]
Login
Username:
Password:
[Signup]
[Recover Account]


Poll


You must be logged in to view polls



Torrent Details For "True Lies 1994 720p BluRay Dual Audio English Hindi GOPISAHI"

True Lies 1994 720p BluRay Dual Audio English Hindi GOPISAHI

Download this torrent | Magnet Download
Health:
Seeds: 0
Leechers: 1
Completed: 621 
Last Checked: 03-09-2018 07:27:40
External Torrent
Update Stats
Download Magnet


Poster


iMDB
Imdb Picture Title: True Lies
Year: 1994
Runtime: 141 minutes
Votes: 202215
Rating: 7.2/10
Language: English, French, Arabic, German
Country: USA
All Genres: Action, Comedy, Thriller
Plot Outline: A fearless, globe-trotting, terrorist-battling secret agent has his life turned upside down when he discovers his wife might be having an affair with a used car salesman while terrorists smuggle nuclear war heads into the United States.
Tagline: When he said I do, he never said what he did.
Director: James Cameron
Writing By: Claude Zidi,Simon Michaël,Didier Kaminka,James Cameron,
Produced By: Stephanie Austin,James Cameron,Pamela Easley,Lawrence Kasanoff,Rae Sanchini,Robert Shriver,
Music: Brad Fiedel
Cast:
Arnold Schwarzenegger as Harry Tasker
Jamie Lee Curtis as Helen Tasker
Tom Arnold as Albert Gibson
Bill Paxton as Simon
Tia Carrere as Juno Skinner
Art Malik as Salim Abu Aziz
Eliza Dushku as Dana Tasker
Grant Heslov as Faisil
Charlton Heston as Spencer Trilby
Marshall Manesh as Jamal Khaled


Watch-Free-HD     Download

Details
Name:True Lies 1994 720p BluRay Dual Audio English Hindi GOPISAHI
Description:

Video
Format                         : AVC
Codec ID                       : V_MPEG4/ISO/AVC
Duration                       : 2 h 21 min
Bit rate                       : 799 kb/s
Width                          : 1 280 pixels
Height                         : 544 pixels
Display aspect ratio           : 2.35:1
Frame rate mode                : Constant
Frame rate                     : 23.976 (24000/1001) FPS
Stream size                    : 811 MiB (82%)
Writing library                : x264 core 148 r2708 86b7198

Audio #1
Format                         : AAC
Duration                       : 2 h 21 min
Bit rate                       : 85.8 kb/s
Channel(s)                     : 6 channels
Channel positions              : Front: L C R, Side: L R, LFE
Sampling rate                  : 44.1 kHz
Frame rate                     : 43.066 FPS (1024 SPF)
Stream size                    : 86.9 MiB (9%)
Language                       : Hindi

Audio #2
Format                         : AAC
Duration                       : 2 h 21 min
Bit rate                       : 90.8 kb/s
Channel(s)                     : 6 channels
Channel positions              : Front: L C R, Side: L R, LFE
Sampling rate                  : 44.1 kHz
Frame rate                     : 43.066 FPS (1024 SPF)
Stream size                    : 92.2 MiB (9%)
Language                       : English


Category:Movies > Hollywood Dub
Lang:Hindi
Total Size:992.99 MB
Info Hash:1d3bad3483ca7e16fa4358571b161cd74058814d
Added By:gopisahi
Date Added:07-09-2017 04:05:24
Views:598
Hits:176

Download Torrent

Ratings:Not Yet Rated (Log in to rate it)


Tracker:
udp://tracker.coppersurfer.tk:6969/announce


File List: 


Comments

No comments still posted

Powered by 10 Hamsters v2-svn -|- Page Generated In 0.275488 secs.
-|- RSS FEED
Theme By: Nikkbu