2018 Game Over, Man! | Island Subtitle Indonesia | CAM The Predator
[Login] or [Signup]
Login
Username:
Password:
[Signup]
[Recover Account]


Poll


You must be logged in to view polls



Torrent Details For "Ballavpur Ki Roopkatha 2017 Hindi Untouched 1080p WEBHD x264 AAC - Hon3yHD"

Ballavpur Ki Roopkatha 2017 Hindi Untouched 1080p WEBHD x264 AAC - Hon3yHD

Download this torrent | Magnet Download
Health:
Seeds: 0
Leechers: 2
Completed:
Last Checked: 06-10-2018 02:22:24
External Torrent
Update Stats
Download Magnet


Poster


Watch-Free-HD     Download

Details
Name:Ballavpur Ki Roopkatha 2017 Hindi Untouched 1080p WEBHD x264 AAC - Hon3yHD
Description:



Ballavpur Ki Roopkatha 2017 Hindi Untouched 1080p WEBHD x264 AAC - Hon3yHD


Format                      : Matroska
Format version              : Version 4 / Version 2
File size                   : 5.29 GiB
Duration                    : 2 h 21 min
Overall bit rate            : 5 360 kb/s
Movie name                  : Hon3yHD


Video
ID                          : 1
Format                      : AVC
Format/Info                 : Advanced Video Codec
Format profile              : [email protected]
Format settings, CABAC      : Yes
Format settings, ReFrames   : 1 frame
Format settings, GOP        : M=1, N=25
Codec ID                    : V_MPEG4/ISO/AVC
Duration                    : 2 h 21 min
Bit rate mode               : Constant
Bit rate                    : 5 232 kb/s
Nominal bit rate            : 6 000 kb/s
Width                       : 1 920 pixels
Height                      : 1 080 pixels
Display aspect ratio        : 16:9
Frame rate mode             : Constant
Frame rate                  : 25.000 FPS
Color space                 : YUV
Chroma subsampling          : 4:2:0
Bit depth                   : 8 bits
Scan type                   : Progressive
Bits/(Pixel*Frame)          : 0.101
Stream size                 : 5.17 GiB (98%)
Default                     : Yes
Forced                      : No

Audio
ID                          : 2
Format                      : AAC
Format/Info                 : Advanced Audio Codec
Format profile              : LC
Codec ID                    : A_AAC
Duration                    : 2 h 21 min
Bit rate                    : 125 kb/s
Channel(s)                  : 2 channels
Channel positions           : Front: L R
Sampling rate               : 48.0 kHz
Frame rate                  : 46.875 FPS (1024 spf)
Compression mode            : Lossy
Stream size                 : 127 MiB (2%)
Language                    : Hindi
Default                     : Yes
Forced                      : No

           
Category:Movies > Bollywood
Lang:Hindi
Total Size:5.29 GB
Info Hash:1c80f7fd5eb75191e1f836e7ced567f66f1ab146
Added By:Hon3y
Date Added:09-05-2017 12:39:45
Views:410
Hits:65

Download Torrent

Ratings:Not Yet Rated (Log in to rate it)


Tracker:
udp://tracker.coppersurfer.tk:6969/announce


File List: 


Comments

No comments still posted

Powered by 10 Hamsters v2-svn -|- Page Generated In 1.956191 secs.
-|- RSS FEED
Theme By: Nikkbu