DownThemAllScarica da Firefox tutto quanto si trova nel web | Episode 23 | Robert Downey Jr.
[Login] or [Signup]
Login
Username:
Password:
[Signup]
[Recover Account]


Poll


You must be logged in to view polls



Torrent Details For "Munna Bhai M.B.B.S. (2003) - 12 mbps 1080p WEBHD (Lovepreet1) DUS"

Munna Bhai M.B.B.S. (2003) - 12 mbps 1080p WEBHD (Lovepreet1) DUS

Download this torrent | Magnet Download
Health:
Seeds: 0
Leechers: 3
Completed:
Last Checked: 08-10-2018 09:45:49
External Torrent
Update Stats
Download Magnet


Poster


iMDB
Imdb Picture Title: Munna Bhai M.B.B.S.
Year: 2003
Runtime: 156 minutes
Votes: 54488
Rating: 8.2/10
Language: Hindi
Country: India
All Genres: Comedy, Drama, Romance
Plot Outline: A gangster sets out to fulfill his father's dream of becoming a doctor.
Tagline: His prescription is ... love
Director: Rajkumar Hirani
Writing By: Vidhu Vinod Chopra,Rajkumar Hirani,Rajkumar Hirani,Lajan Joseph,Abbas Tyrewala,
Produced By: Vidhu Vinod Chopra,Vir Chopra,
Music: Anu Malik
Cast:
Sunil Dutt as Shri Hari Prasad Sharma
Sanjay Dutt as Murli Prasad 'Munna Bhai' Sharma
Arshad Warsi as Circuit
Gracy Singh as Dr. Suman Asthana (Chinki)
Boman Irani as Dr. J. C. Asthana
Rohini Hattangadi as Parvati Sharma
Kurush Deboo as Dr. Rustam Pavri
Jimmy Shergill as Zaheer
Yatin Karyekar as Anand Banerjee
Suresh Chatwal as Manilal


Watch-Free-HD     Download

Details
Name:Munna Bhai M.B.B.S. (2003) - 12 mbps 1080p WEBHD (Lovepreet1) DUS
Description:
General
Complete name                            : Munna Bhai M.B.B.S. (2003) - 12 mbps 1080p WEBHD (Lovepreet1) DUS.mp4
Format                                   : MPEG-4
Format profile                           : Base Media
Codec ID                                 : isom (isom/iso2/avc1/mp41)
File size                                : 13.3 GiB
Duration                                 : 2 h 36 min
Overall bit rate                         : 12.2 Mb/s
Writing application                      : Lavf56.40.101

Video
ID                                       : 1
Format                                   : AVC
Format/Info                              : Advanced Video Codec
Format profile                           : [email protected]
Format settings, CABAC                   : Yes
Format settings, RefFrames               : 4 frames
Codec ID                                 : avc1
Codec ID/Info                            : Advanced Video Coding
Duration                                 : 2 h 36 min
Bit rate                                 : 12.0 Mb/s
Width                                    : 1 920 pixels
Height                                   : 816 pixels
Display aspect ratio                     : 2.35:1
Frame rate mode                          : Constant
Frame rate                               : 24.000 FPS
Color space                              : YUV
Chroma subsampling                       : 4:2:0
Bit depth                                : 8 bits
Scan type                                : Progressive
Bits/(Pixel*Frame)                       : 0.319
Stream size                              : 13.1 GiB (98%)
Writing library                          : x264 core 138

Audio
ID                                       : 2
Format                                   : AAC
Format/Info                              : Advanced Audio Codec
Format profile                           : LC
Codec ID                                 : 40
Duration                                 : 2 h 36 min
Bit rate mode                            : Constant
Bit rate                                 : 192 kb/s
Channel(s)                               : 2 channels
Channel positions                        : Front: L R
Sampling rate                            : 48.0 kHz
Frame rate                               : 46.875 FPS (1024 SPF)
Compression mode                         : Lossy
Stream size                              : 214 MiB (2%)
Default                                  : Yes
Alternate group                          : 1










Category:Movies > Bollywood
Lang:Hindi
Total Size:13.28 GB
Info Hash:92d3a40600d7b0ca1beb05dbf2664fa683061774
Added By:B3BarG
Date Added:24-09-2017 10:15:09
Views:704
Hits:205

Download Torrent

Ratings:Not Yet Rated (Log in to rate it)


Tracker:
udp://tracker.coppersurfer.tk:6969/announce

This Torrent also has backup trackers
URLSeedersLeechersCompleted
http://ipv4.tracker.harry.lu/announce020
http://t.nyaatracker.com/announce110
http://t.nyaatracker.com:80/announce040
http://open.kickasstracker.com:443/announce130


File List: 


Comments

No comments still posted

Powered by 10 Hamsters v2-svn -|- Page Generated In 1.295000 secs.
-|- RSS FEED
Theme By: Nikkbu