Auf Facebook teilen | Season 2 | Eps23 Forged in Fire - Season 4 (2017)
[Login] or [Signup]
Login
Username:
Password:
[Signup]
[Recover Account]


Poll


You must be logged in to view polls



Torrent Details For "Captain Underpants The First Epic Movie 2017 Dual Audio [DD 5.1 Hindi - English 2.0] 720p Blura..."

Captain Underpants The First Epic Movie 2017 Dual Audio [DD 5.1 Hindi - English 2.0] 720p Blura...

Download this torrent | Magnet Download
Health:
Seeds: 0
Leechers: 2
Completed: 35,584 
Last Checked: 11-10-2018 04:55:52
External Torrent
Update Stats
Download Magnet


Poster


Watch-Free-HD     Download

Details
Name:Captain Underpants The First Epic Movie 2017 Dual Audio [DD 5.1 Hindi - English 2.0] 720p Blura...
Description:
Captain Underpants The First Epic Movie 2017 Dual Audio [DD 5.1 Hindi - English 2.0] 720p Bluray ESub




General
Format                                   : Matroska
Format version                           : Version 4 / Version 2
File size                                : 933 MiB
Duration                                 : 1 h 28 min
Overall bit rate                         : 1 470 kb/s
Movie name                               : Captain Underpants The First Epic Movie 2017 Dual Audio [DD 5.1

Video
ID                                       : 1
Format                                   : AVC
Format/Info                              : Advanced Video Codec
Format profile                           : [email protected]
Format settings                          : CABAC / 4 Ref Frames
Format settings, CABAC                   : Yes
Format settings, RefFrames               : 4 frames
Codec ID                                 : V_MPEG4/ISO/AVC
Duration                                 : 1 h 28 min
Bit rate                                 : 900 kb/s
Width                                    : 1 280 pixels
Height                                   : 682 pixels
Display aspect ratio                     : 1.85:1
Original display aspect ratio            : 1.85:1
Frame rate mode                          : Constant
Frame rate                               : 23.976 FPS
Color space                              : YUV
Chroma subsampling                       : 4:2:0
Bit depth                                : 8 bits
Scan type                                : Progressive
Bits/(Pixel*Frame)                       : 0.043
Stream size                              : 571 MiB (61%)
Title                                    : Captain Underpants The First Epic Movie 2017 Dual Audio [DD 5.1 Hindi - English 2.0] 720p Bluray ESub
Writing library                          : x264 core 148
Default                                  : Yes
Forced                                   : No

Audio #1
ID                                       : 2
Format                                   : AC-3
Format/Info                              : Audio Coding 3
Format settings, Endianness              : Big
Codec ID                                 : A_AC3
Duration                                 : 1 h 28 min
Bit rate mode                            : Constant
Bit rate                                 : 448 kb/s
Channel(s)                               : 6 channels
Channel positions                        : Front: L C R, Side: L R, LFE
Sampling rate                            : 48.0 kHz
Frame rate                               : 31.250 FPS (1536 SPF)
Bit depth                                : 16 bits
Compression mode                         : Lossy
Delay relative to video                  : -43 ms
Stream size                              : 284 MiB (30%)
Language                                 : Hindi
Service kind                             : Complete Main
Default                                  : Yes
Forced                                   : Yes

Audio #2
ID                                       : 3
Format                                   : AAC
Format/Info                              : Advanced Audio Codec
Format profile                           : LC
Codec ID                                 : A_AAC-2
Duration                                 : 1 h 28 min
Bit rate                                 : 121 kb/s
Channel(s)                               : 2 channels
Channel positions                        : Front: L R
Sampling rate                            : 48.0 kHz
Frame rate                               : 46.875 FPS (1024 SPF)
Compression mode                         : Lossy
Delay relative to video                  : -43 ms
Stream size                              : 76.7 MiB (8%)
Language                                 : English
Default                                  : No
Forced                                   : No

Text
ID                                       : 4
Format                                   : UTF-8
Codec ID                                 : S_TEXT/UTF8
Codec ID/Info                            : UTF-8 Plain Text
Duration                                 : 1 h 27 min
Bit rate                                 : 80 b/s
Count of elements                        : 1859
Stream size                              : 52.1 KiB (0%)
Language                                 : English
Default                                  : Yes
Forced                                   : No










Category:Movies > Hollywood Dub
Lang:Hindi
Total Size:933.33 MB
Info Hash:b9503faf995a4b7e632f74eb432ea957654dba5a
Added By:Freaky
Date Added:05-10-2017 06:26:38
Views:1,377
Hits:298

Download Torrent

Ratings:Not Yet Rated (Log in to rate it)


Tracker:
udp://tracker.leechers-paradise.org:6969/announce

This Torrent also has backup trackers
URLSeedersLeechersCompleted
http://ipv4.tracker.harry.lu/announce103190278
http://ipv4.tracker.harry.lu:80/announce11779454
http://open.kickasstracker.com/announce130930
http://tracker.devil-torrents.pl/announce118740
http://bigfoot1942.sektori.org:6969/announce000


File List: 


Comments

<< Previous      Next >>
1 - 1

[Report] Posted: 05-10-2017 at 07:58:24
wiki



Uploaded: 0.00 B
Downloaded: 0.00 B
Ratio: ---

GOod Share....Thanks BR0...Keep It Up Kids Movies

1 - 1
<< Previous      Next >>


Powered by 10 Hamsters v2-svn -|- Page Generated In 0.759440 secs.
-|- RSS FEED
Theme By: Nikkbu