Vikings S04E11 VOSTFR HDTV | More Details | Apollo GT
[Login] or [Signup]
Login
Username:
Password:
[Signup]
[Recover Account]


Poll


You must be logged in to view polls



Torrent Details For "Saab Bahadar 2017 720p Non Retail DVDRiP Punjabi GOPISAHI"

Saab Bahadar 2017 720p Non Retail DVDRiP Punjabi GOPISAHI

Download this torrent | Magnet Download
Health:
Seeds: 3
Leechers: 0
Completed: 5,627 
Last Checked: 15-10-2018 16:38:51
External Torrent
Update Stats
Download Magnet


Poster


iMDB
Imdb Picture Title: Saab Bahadar
Year: 2017
Runtime: 109 minutes
Votes: 8
Rating: 8.6/10
Language: Panjabi
Country: India
All Genres: Thriller
Plot Outline: A small-town police officer investigates the murder of a prominent citizen.
Director: Amrit Raj Chadha
Writing By: Jass Grewal,
Produced By: Gunbir Singh Sidhu,Manmord Sidhu,
Plot:

A small-town police officer investigates the murder of a prominent citizen.


Cast:
Ammy Virk as Saab Bahadar
Jaswinder Bhalla as
Rana Ranbir as
Preet Kamal as
Seema Kaushal as


Watch-Free-HD     Download

Details
Name:Saab Bahadar 2017 720p Non Retail DVDRiP Punjabi GOPISAHI
Description:

Format                         : Matroska
Format version                 : Version 4 / Version 2
File size                      : 491 MiB
Duration                       : 1 h 55 min
Overall bit rate               : 596 kb/s
Movie name                     : Saab Bahadar 2017  

Video
Format                         : AVC
Codec ID                       : V_MPEG4/ISO/AVC
Duration                       : 1 h 55 min
Bit rate                       : 499 kb/s
Width                          : 1 280 pixels
Height                         : 568 pixels
Display aspect ratio           : 2.25:1
Frame rate mode                : Constant
Frame rate                     : 23.976 (24000/1001) FPS
Stream size                    : 411 MiB (84%)
Writing library                : x264

Audio
Format                         : AAC
Duration                       : 1 h 55 min
Bit rate                       : 96.0 kb/s
Channel(s)                     : 6 channels
Channel positions              : Front: L C R, Side: L R, LFE
Sampling rate                  : 44.1 kHz
Frame rate                     : 43.066 FPS (1024 SPF)
Stream size                    : 78.4 MiB (16%)
Language                       : Panjabi


Category:Movies > Punjabi
Lang:Punjabi
Total Size:491.40 MB
Info Hash:6eaf372373325ce9f7bd7f86c25454cb8d5156ab
Added By:gopisahi
Date Added:17-10-2017 15:16:30
Views:2,156
Hits:386

Download Torrent

Ratings:Not Yet Rated (Log in to rate it)


Tracker:
http://ipv4.tracker.harry.lu/announce

This Torrent also has backup trackers
URLSeedersLeechersCompleted
http://ipv4.tracker.harry.lu/announce324114
http://ipv4.tracker.harry.lu:80/announce324114
http://163.172.180.68:80/announce324114
http://t.nyaatracker.com/announce010
http://tracker.devil-torrents.pl:80/announce1620
http://tracker.devil-torrents.pl/announce1620
http://open.kickasstracker.com/announce2920
http://163.172.180.68/announce324114
http://t.nyaatracker.com:80/announce010
http://retracker.mgts.by:80/announce00549
http://45.33.11.224/announce1514
http://tracker.torrentyorg.pl:80/announce100
http://pt.lax.mx:80/announce9315894


File List: 


Comments

No comments still posted

Powered by 10 Hamsters v2-svn -|- Page Generated In 0.244736 secs.
-|- RSS FEED
Theme By: Nikkbu