The Undateables: Season ... | imo instant messenger | Watch movie
[Login] or [Signup]
Login
Username:
Password:
[Signup]
[Recover Account]


Poll


You must be logged in to view polls



Torrent Details For "Don 2006 Hindi 720p Blu-Ray x264 AAC [SSEC.life] { TaRa }"

Don 2006 Hindi 720p Blu-Ray x264 AAC [SSEC.life] { TaRa }

Download this torrent | Magnet Download
Health:
Seeds: 0
Leechers: 6
Completed: 376 
Last Checked: 15-09-2018 08:46:15
External Torrent
Update Stats
Download Magnet


Poster


iMDB
Imdb Picture Original Title: Don
Title: Don, la chasse à l'homme
Year: 2006
Runtime: 171 minutes
Votes: 28519
Rating: 7.2/10
Language: Hindi
Country: India
All Genres: Action, Crime, Thriller
Plot Outline: A simple man, Vijay, is recruited by a police officer to masquerade as Don, the leader of an international gang of smugglers. But things go wrong when the officer is killed and Vijay is left to fend for himself.
Tagline: The countdown begins...
Director: Farhan Akhtar
Writing By: Salim Khan,Javed Akhtar,Farhan Akhtar,
Produced By: Farhan Akhtar,Kabir Bhatia,Jim Damour,Miriam Joseph,Ritesh Sidhwani,
Music: Shankar Mahadevan Loy Mendonsa Ehsaan Noorani
Cast:
Shah Rukh Khan as Don / Vijay
Priyanka Chopra as Roma
Arjun Rampal as Jasjit Ahuja
Isha Koppikar as Anita
Boman Irani as DCP D'Silva
Om Puri as CBI Officer Vishal Malik
Pavan Malhotra as Narang
Rajesh Khattar as Singhania
Tanay Chheda as Deepu
Kareena Kapoor Khan as Kamini


Watch-Free-HD     Download

Details
Name:Don 2006 Hindi 720p Blu-Ray x264 AAC [SSEC.life] { TaRa }
Description:

Don 2006 Hindi 720p Blu-Ray x264 AAC [SSEC.life] { TaRa }



Quote:

===================================================================
General
Complete name               : Don 2006 Hindi 720p Blu-Ray x264 AAC [SSEC.life] { TaRa }
Format                      : Matroska
Format version              : Version 4 / Version 2
File size                   : 1.44 GiB
Duration                    : 2 h 48 min
Overall bit rate mode       : Variable
Overall bit rate            : 1 227 kb/s
===================================================================
Video
ID                          : 1
Format                      : AVC
Format/Info                 : Advanced Video Codec
Format profile              : [email protected]
Format settings, CABAC      : Yes
Format settings, ReFrames   : 12 frames
Codec ID                    : V_MPEG4/ISO/AVC
Duration                    : 2 h 48 min
Bit rate mode               : Variable
Bit rate                    : 1 034 kb/s
Maximum bit rate            : 62.5 Mb/s
Width                       : 1 280 pixels
Height                      : 534 pixels
Display aspect ratio        : 2.40:1
Frame rate mode             : Constant
Frame rate                  : 24.000 FPS
Color space                 : YUV
Chroma subsampling          : 4:2:0
Bit depth                   : 8 bits
Scan type                   : Progressive
Bits/(Pixel*Frame)          : 0.063
Stream size                 : 1.22 GiB (84%)
Title                       : ssec.life
Language                    : Hindi
Default                     : Yes
Forced                      : No
===================================================================
Audio
ID                          : 2
Format                      : AAC
Format/Info                 : Advanced Audio Codec
Format profile              : HE-AAC / LC
Codec ID                    : A_AAC
Duration                    : 2 h 48 min
Bit rate                    : 192 kb/s
Channel(s)                  : 6 channels
Channel positions           : Front: L C R, Side: L R, LFE
Sampling rate               : 48.0 kHz / 24.0 kHz
Frame rate                  : 23.438 FPS (1024 spf)
Compression mode            : Lossy
Stream size                 : 232 MiB (16%)
Title                       : ssec.life
Language                    : Hindi
Default                     : Yes
Forced                      : No
===================================================================



                   z" target="_blank">                                












 

Category:Movies > Bollywood
Lang:Hindi
Total Size:1.44 GB
Info Hash:7689194afc1be30da34b06db143379b689d3fe83
Added By:SkTaRa
Date Added:13-11-2017 12:27:11
Views:626
Hits:124

Download Torrent

Ratings:Not Yet Rated (Log in to rate it)

  


Tracker:
http://ipv4.tracker.harry.lu/announce

This Torrent also has backup trackers
URLSeedersLeechersCompleted
http://ipv4.tracker.harry.lu/announce1613117
http://ipv4.tracker.harry.lu:80/announce1613117
http://t.nyaatracker.com/announce14156
http://t.nyaatracker.com:80/announce192856
http://45.33.11.224/announce14156
http://tracker.torrentyorg.pl:80/announce022
http://pt.lax.mx:80/announce10953
http://retracker.mgts.by:80/announce1011157
http://open.kickasstracker.com/announce17110
http://163.172.180.68/announce1613117
http://82.209.230.66/announce02187
http://retracker.mgts.by/announce02187
http://tracker.devil-torrents.pl/announce23230
http://open.kickasstracker.com:443/announce17110
http://tracker.devil-torrents.pl:80/announce23230


File List: 


Comments

No comments still posted

Powered by 10 Hamsters v2-svn -|- Page Generated In 0.141145 secs.
-|- RSS FEED
Theme By: Nikkbu