Diwali Crackers Pro v1.0 APK Mod | Juuni Taisen Subtitle Indonesia | Documentary
[Login] or [Signup]
Login
Username:
Password:
[Signup]
[Recover Account]


Poll


You must be logged in to view polls



Torrent Details For "Confidential Assignment 2017 720p Esub BluRay Dual Audio Hindi Korean GOPISAHI"

Confidential Assignment 2017 720p Esub BluRay Dual Audio Hindi Korean GOPISAHI

Download this torrent | Magnet Download
Health:
Seeds: 0
Leechers: 1
Completed: 211 
Last Checked: 11-10-2018 07:45:56
External Torrent
Update Stats
Download Magnet


Poster


iMDB
Imdb Picture Original Title: Gongjo
Title: Confidential Assignment
Year: 2017
Runtime: 125 minutes
Votes: 831
Rating: 6.5/10
Language: Korean
Country: South Korea
All Genres: Action
Plot Outline: When a crime organization from North Korea crosses borders and enters South Korean soil, a South Korean detective must cooperate with a North Korean detective to investigate their whereabouts.
Director: Sung-hoon Kim

Produced By: JK Youn,
Music: Sang-joon Hwang
Cast:
Hyun Bin as Lim Cheol-ryung
Hai-jin Yoo as Kang Jin-tae
Joo-Hyuck Kim as Cha Gi-sung
Hae-Young Lee as Detective Squad Chief Pyo
Young-nam Jang as So-yeon
Yoon-a Lim as Park Min-young
Dong-hwi Lee as Park Myung-ho


Watch-Free-HD     Download

Details
Name:Confidential Assignment 2017 720p Esub BluRay Dual Audio Hindi Korean GOPISAHI
Description:

Format                         : Matroska
Format version                 : Version 4 / Version 2
File size                      : 871 MiB
Duration                       : 2 h 4 min
Overall bit rate               : 980 kb/s
Movie name                     : Confidential Assignment 2017 Hindi Korean

Video
Format                         : AVC
Format settings, CABAC         : Yes
Format settings, RefFrames     : 16 frames
Codec ID                       : V_MPEG4/ISO/AVC
Duration                       : 2 h 4 min
Bit rate                       : 800 kb/s
Width                          : 1 280 pixels
Height                         : 536 pixels
Display aspect ratio           : 2.40:1
Frame rate mode                : Constant
Frame rate                     : 24.000 FPS
Stream size                    : 711 MiB (82%)
Writing library                : x264


Audio #1
Format                         : AAC
Duration                       : 2 h 4 min
Bit rate                       : 86.6 kb/s
Channel(s)                     : 6 channels
Channel positions              : Front: L C R, Side: L R, LFE
Sampling rate                  : 44.1 kHz
Frame rate                     : 43.066 FPS (1024 SPF)
Stream size                    : 77.0 MiB (9%)
Language                       : Korean

Audio #2
Format                         : AAC
Duration                       : 2 h 4 min
Bit rate                       : 90.8 kb/s
Channel(s)                     : 6 channels
Channel positions              : Front: L C R, Side: L R, LFE
Sampling rate                  : 44.1 kHz
Frame rate                     : 43.066 FPS (1024 SPF)
Stream size                    : 80.7 MiB (9%)
Language                       : Hindi

Text
Language                       : English


Category:Movies > Hollywood Dub
Lang:Hindi
Total Size:870.99 MB
Info Hash:7b7195424329259a6a53432aa94c3cfca2ab7a23
Added By:gopisahi
Date Added:28-11-2017 14:55:55
Views:1,345
Hits:273

Download Torrent

Ratings:Not Yet Rated (Log in to rate it)


Tracker:
http://ipv4.tracker.harry.lu/announce

This Torrent also has backup trackers
URLSeedersLeechersCompleted
http://ipv4.tracker.harry.lu/announce000
http://ipv4.tracker.harry.lu:80/announce000
http://163.172.180.68:80/announce000
http://t.nyaatracker.com/announce020
http://tracker.devil-torrents.pl:80/announce000
http://tracker.devil-torrents.pl/announce000
http://open.kickasstracker.com/announce000
http://163.172.180.68/announce000
http://t.nyaatracker.com:80/announce020
http://retracker.mgts.by:80/announce01211
http://45.33.11.224/announce000
http://tracker.torrentyorg.pl:80/announce020
http://pt.lax.mx:80/announce000


File List: 


Comments

No comments still posted

Powered by 10 Hamsters v2-svn -|- Page Generated In 0.518136 secs.
-|- RSS FEED
Theme By: Nikkbu