Miniclip.com | Agreement Termination Letter | Continuing Education
[Login] or [Signup]
Login
Username:
Password:
[Signup]
[Recover Account]


Poll


You must be logged in to view polls



Torrent Details For "Big Game 2014 720p x264 Esub BluRay Dual Audio English Hindi GOPISAHI"

Big Game 2014 720p x264 Esub BluRay Dual Audio English Hindi GOPISAHI

Download this torrent | Magnet Download
Health:
Seeds: 0
Leechers: 10
Completed: 1,329 
Last Checked: 25-08-2018 11:12:02
External Torrent
Update Stats
Download Magnet


Poster


iMDB
Imdb Picture Title: Big Game
Year: 2014
Runtime: 90 minutes
Votes: 25166
Rating: 5.4/10
Language: English, Finnish
Country: UK, Finland, Germany
All Genres: Action, Adventure
Plot Outline: A young teenager camping in the woods helps rescue the President of the United States when Air Force One is shot down near his campsite.
Tagline: Big Action. Big Adventure.
Director: Jalmari Helander
Writing By: Jalmari Helander,Jalmari Helander,Petri Jokiranta,
Produced By: Christian Angermayer,Will Clarke,Mohammed Hans Dastmaltchi,Walter Donohue,Alex Garland,Klemens Hallmann,Marc Hansell,Alan Howard,Phil Hunt,Petri Jokiranta,Jeff Kalligheri,Frank Lehmann,Pierre Lorinet,Andy Mayson,Benjamin Melkman,Jens Meurer,Yasin Qureshi,Compton Ross,Mike Runagall,Jens-Peter Stein,Judy Tossell,Jari Tuovinen,Jean Pierre Valentini,Markus R. Vogelbacher,Marc Wachter,
Music: Juri Seppä Miska Seppä
Cast:
Samuel L. Jackson as US President William Alan Moore
Onni Tommila as Oskari
Ray Stevenson as Morris
Victor Garber as Vice President
Mehmet Kurtulus as Hazar
Ted Levine as General Underwood
Jorma Tommila as Tapio
Risto Salmi as Hamara
Felicity Huffman as CIA Director
Jim Broadbent as Herbert
Trailers:
International Trailer
Theatrical Trailer


Watch-Free-HD     Download

Details
Name:Big Game 2014 720p x264 Esub BluRay Dual Audio English Hindi GOPISAHI
Description:

Format                         : Matroska
Format version                 : Version 4 / Version 2
File size                      : 436 MiB
Duration                       : 1 h 30 min
Overall bit rate               : 674 kb/s
Movie name                     : Big Game 2014 GOPISAHI

Video
Format                         : AVC
Codec ID                       : V_MPEG4/ISO/AVC
Duration                       : 1 h 30 min
Bit rate                       : 500 kb/s
Width                          : 1 280 pixels
Height                         : 536 pixels
Display aspect ratio           : 2.40:1
Frame rate mode                : Constant
Frame rate                     : 23.976 (24000/1001) FPS
Stream size                    : 323 MiB (74%)
Title                          : GOPISAHI
Writing library                : x264 core 155 r2893 b00bcaf
Language                       : English

Audio #1
Format                         : AAC
Duration                       : 1 h 30 min
Bit rate                       : 86.0 kb/s
Channel(s)                     : 6 channels
Channel positions              : Front: L C R, Side: L R, LFE
Sampling rate                  : 44.1 kHz
Frame rate                     : 43.066 FPS (1024 SPF)
Compression mode               : Lossy
Stream size                    : 55.6 MiB (13%)
Language                       : English

Audio #2
Format                         : AAC
Duration                       : 1 h 30 min
Bit rate                       : 86.6 kb/s
Channel(s)                     : 6 channels
Channel positions              : Front: L C R, Side: L R, LFE
Sampling rate                  : 44.1 kHz
Frame rate                     : 43.066 FPS (1024 SPF)
Compression mode               : Lossy
Stream size                    : 56.0 MiB (13%)
Title                          : GOPISAHI
Language                       : Hindi

Text
Language                       : English





drit link

 http://mega.nz/#!8WgyADQC!1D6...XwjxSplMJqGW5MkKEaSI
Category:Movies > Hollywood Dub
Lang:Hindi
Total Size:436.32 MB
Info Hash:17a12e7b44a6329f52eeb8bf3928f17e70196e31
Added By:gopisahi
Date Added:20-03-2018 04:41:13
Views:735
Hits:64

Download Torrent

Ratings:Not Yet Rated (Log in to rate it)


Tracker:
udp://9.rarbg.com:2740/announce


File List: 


Comments

No comments still posted

Powered by 10 Hamsters v2-svn -|- Page Generated In 0.287688 secs.
-|- RSS FEED
Theme By: Nikkbu