Avengers Infinity War | Scarica APK | 13.04.1803:25 Uhr VA - Sublime Bass Vol 10 House320 kbit/s 0 / 01.132 Hits VID P2P DDL 0 Kommentare
[Login] or [Signup]
Login
Username:
Password:
[Signup]
[Recover Account]


Poll


You must be logged in to view polls



Torrent Details For "Predator - Upgrade[2108] - NEW HD TS English - 720p -x264 - AAC - 900MB"

Predator - Upgrade[2108] - NEW HD TS English - 720p -x264 - AAC - 900MB

Download this torrent | Magnet Download
Health:
Seeds: 0
Leechers: 0
Completed:
Last Checked: 17-09-2018 04:22:41
External Torrent
Update Stats
Download Magnet


Poster


iMDB
Title: The Predator
Year: 2018
Runtime: 107 minutes
Language: English, Spanish
All Genres: Action, Adventure, Horror, Sci-Fi, Thriller
Tagline: The Hunt has Evolved
Director: Shane Black
Writing By: Fred Dekker,Shane Black,Jim Thomas,John Thomas,
Produced By: Blondel Aidoo,Bill Bannerman,John Davis,Lawrence Gordon,
Music: Henry Jackman
Cast:
Boyd Holbrook as Quinn McKenna
Trevante Rhodes as Nebraska Williams
Jacob Tremblay as Rory McKenna
Keegan-Michael Key as Coyle
Olivia Munn as Casey Bracket
Sterling K. Brown as Traeger
Thomas Jane as Baxley
Alfie Allen as Lynch
Augusto Aguilera as Nettles
Jake Busey as Keyes
Trailers:
Final Trailer
Official Trailer
Teaser Trailer


Watch-Free-HD     Download

Details
Name:Predator - Upgrade[2108] - NEW HD TS English - 720p -x264 - AAC - 900MB
Description:
Predator - Upgrade[2108] - NEW HD TS English - 720p -x264 - AAC - 900MB

 



Video
ID                          : 1
Format                      : AVC
Format/Info                 : Advanced Video Codec
Format profile              : [email protected]
Format settings             : CABAC / 5 Ref Frames
Format settings, CABAC      : Yes
Format settings, ReFrames   : 5 frames
Codec ID                    : avc1
Codec ID/Info               : Advanced Video Coding
Duration                    : 1 h 41 min
Bit rate                    : 1 088 kb/s
Width                       : 1 280 pixels
Height                      : 524 pixels
Display aspect ratio        : 2.40:1
Frame rate mode             : Constant
Frame rate                  : 29.970 (30000/1001) FPS
Color space                 : YUV
Chroma subsampling          : 4:2:0
Bit depth                   : 8 bits
Scan type                   : Progressive
Bits/(Pixel*Frame)          : 0.054
Stream size                 : 794 MiB (89%)
Writing library             : x264 core 148 r2643 5c65704

Audio
ID                          : 2
Format                      : AAC
Format/Info                 : Advanced Audio Codec
Format profile              : LC
Codec ID                    : mp4a-40-2
Duration                    : 1 h 41 min
Duration_LastFrame          : -11 ms
Bit rate mode               : Constant
Bit rate                    : 128 kb/s
Channel(s)                  : 2 channels
Channel positions           : Front: L R
Sampling rate               : 48.0 kHz
Frame rate                  : 46.875 FPS (1024 SPF)
Compression mode            : Lossy
Stream size                 : 93.4 MiB (10%)
Default                     : Yes
Alternate group             : 1

      


Category:Movies > HEVC
Lang:English  English
Total Size:891.99 MB
Info Hash:d5f7765e0ecaae91351d0929b3a24bdcdb86c36e
Added By:Tamilgun
Date Added:17-09-2018 04:22:41
Views:345
Hits:15

Download Torrent

Ratings:Not Yet Rated (Log in to rate it)


Tracker:
udp://tracker.coppersurfer.tk:6969/announce

This Torrent also has backup trackers
URLSeedersLeechersCompleted
http://t.nyaatracker.com:80/announce000
http://tracker.city9x.com:2710/announce000
http://retracker.telecom.by:80/announce000
http://tracker.electro-torrent.pl:80/announce000
http://open.kickasstracker.com:443/announce000
http://retracker.mgts.by:80/announce000
http://fxtt.ru:80/announce000


File List: 


Comments

No comments still posted

Powered by 10 Hamsters v2-svn -|- Page Generated In 1.000026 secs.
-|- RSS FEED
Theme By: Nikkbu