Eps20 The Heirs | Eurovision Song Contest 2017. | 2018/10/04
[Login] or [Signup]
Login
Username:
Password:
[Signup]
[Recover Account]


Poll


You must be logged in to view polls



Torrent Details For "Sohni Mahiwal 1984 Hindi 1080p-=!ARIF HD 241 R-B!=-"

Sohni Mahiwal 1984 Hindi 1080p-=!ARIF HD 241 R-B!=-

Download this torrent | Magnet Download
Health:
Seeds: 1
Leechers: 14
Completed:
Last Checked: 26-09-2018 18:31:08
External Torrent
Update Stats
Download Magnet


Poster


iMDB
Title: Sohni Mahiwal
Year: 1984
Runtime: 142 minutes
Votes: 191
Rating: 6.2/10
Language: Punjabi, Hindi
Director: Kanwal Biala
Latif Faiziyev
Umesh Mehra
Writing By: Shanti Prakash Bakshi,Shanti Prakash Bakshi,Latif Faiziyev,Latif Faiziyev,Umesh Mehra,Javed Siddiqui,Javed Siddiqui,Ulmas Umarbekov,Ulmas Umarbekov,
Produced By: F.C. Mehra,Parvesh C. Mehra,
Music: Anu Malik Vladimir Milov
Cast:
Sunny Deol as Mirza Izzat Beg
Poonam Dhillon as Sohni
Pran as Tulla
Tanuja as Tulla's wife
Gulshan Grover as Noor
Rakesh Bedi as Salamat
Mehar Mittal as
Baby Farida as
Samad as
Mher Mkrtchyan as Warrior


Watch-Free-HD     Download

Details
Name:Sohni Mahiwal 1984 Hindi 1080p-=!ARIF HD 241 R-B!=-
Description:
Sohni Mahiwal 1984 Hindi 1080p-=!ARIF HD 241 R-B!=-



Media Info


Complete name               : Sohni Mahiwal 1984 Hindi 1080p-=!ARIF HD 241 R-B!=-\Sohni Mahiwal 1984 Hindi 1080p-=!ARIF HD 241 R-B!=-.mkv
Format                      : Matroska
Format version              : Version 4 / Version 2
File size                   : 4.05 GiB
Duration                    : 2 h 40 min
Overall bit rate            : 3 624 kb/s
Movie name                  : Sohni Mahiwal 1984 Hindi 1080p-=!ARIF HD 241 R-B!=-
Encoded date                : UTC 2018-09-26 09:18:31
Writing application         : mkvmerge v10.0.0 ('To Drown In You') 64bit
Writing library             : libebml v1.3.4 + libmatroska v1.4.5
Cover                       : Yes
Attachments                 : Cover.png

Video
ID                          : 1
Format                      : AVC
Format/Info                 : Advanced Video Codec
Format profile              : [email protected]
Format settings             : CABAC / 4 Ref Frames
Format settings, CABAC      : Yes
Format settings, ReFrames   : 4 frames
Codec ID                    : V_MPEG4/ISO/AVC
Duration                    : 2 h 40 min
Bit rate                    : 3 461 kb/s
Width                       : 1 280 pixels
Height                      : 720 pixels
Display aspect ratio        : 2.2:1
Original display aspect rat : 2.2:1
Frame rate mode             : Constant
Frame rate                  : 24.000 FPS
Color space                 : YUV
Chroma subsampling          : 4:2:0
Bit depth                   : 8 bits
Scan type                   : Progressive
Bits/(Pixel*Frame)          : 0.156
Stream size                 : 3.87 GiB (95%)

Default                     : Yes
Forced                      : No
Color range                 : Limited
Color primaries             : BT.709
Transfer characteristics    : BT.709
Matrix coefficients         : BT.709

Audio
ID                          : 2
Format                      : AAC
Format/Info                 : Advanced Audio Codec
Format profile              : LC
Codec ID                    : A_AAC-2
Duration                    : 2 h 40 min
Bit rate                    : 160 kb/s
Channel(s)                  : 2 channels
Channel positions           : Front: L R
Sampling rate               : 48.0 kHz
Frame rate                  : 46.875 FPS (1024 SPF)
Compression mode            : Lossy
Delay relative to video     : -21 ms
Stream size                 : 184 MiB (4%)
Language                    : Hindi
Default                     : Yes
Forced                      : No


Screen Short













Category:Movies > Bollywood
Lang:Hindi
Total Size:4.06 GB
Info Hash:0f6f2a1aca620e5c83f0c2613a917b8dd443e67b
Added By:sdhani00007
Date Added:26-09-2018 10:41:41
Views:855
Hits:72

Download Torrent

Ratings:Not Yet Rated (Log in to rate it)


Tracker:
udp://tracker.openbittorrent.com:80/announce


File List: 


Comments

No comments still posted

Powered by 10 Hamsters v2-svn -|- Page Generated In 0.861562 secs.
-|- RSS FEED
Theme By: Nikkbu