netlimiter pro 4 crack | Armed Girls Machiavellism Episode 4 | PicsArt - Estudio
[Login] or [Signup]
Login
Username:
Password:
[Signup]
[Recover Account]


Poll


You must be logged in to view polls



Torrent Details For " Venom (2018) HDCAMRip 720p Dual Audio [Hindi+Tamil+Rus] [1.1GB] Full Hollywood Movie Hindi"

Venom (2018) HDCAMRip 720p Dual Audio [Hindi+Tamil+Rus] [1.1GB] Full Hollywood Movie Hindi

Download this torrent | Magnet Download
Health:
Seeds: 753
Leechers: 858
Completed: 1,769 
Last Checked: 07-10-2018 08:02:51
External Torrent
Update Stats
Download Magnet


Poster


iMDB
Title: Venom
Year: 2018
Runtime: 112 minutes
Votes: 20600
Rating: 7.1/10
Language: English
Tagline: The world has enough Superheroes.
Director: Ruben Fleischer
Writing By: Jeff Pinkner,Scott Rosenberg,Kelly Marcel,Jeff Pinkner,Scott Rosenberg,Todd McFarlane,David Michelinie,
Produced By: Avi Arad,Howard Chen,Edward Cheng,Tom Hardy,David B. Householter,Stan Lee,Kelly Marcel,Amy Pascal,Matt Tolmach,
Music: Ludwig Göransson
Cast:
Tom Hardy as Eddie Brock / Venom
Michelle Williams as Anne Weying
Riz Ahmed as Carlton Drake / Riot
Scott Haze as Security Chief Roland Treece
Reid Scott as Dr. Dan Lewis
Jenny Slate as Dr. Dora Skirth
Melora Walters as Homeless Woman Maria
Woody Harrelson as Cletus Kasady
Peggy Lu as Mrs. Chen
Malcolm C. Murray as Lewis Donate
Trailers:
Official Trailer
Official Trailer #2
Trailer #1
Official Teaser Trailer


Watch-Free-HD     Download

Details
Name: Venom (2018) HDCAMRip 720p Dual Audio [Hindi+Tamil+Rus] [1.1GB] Full Hollywood Movie Hindi
Description:
New Latest HD Movies Download Link :-  http://skymovieshd.in
***********************************





General
Format                                   : Matroska
Format version                           : Version 4 / Version 2
File size                                : 2.55 GiB
Duration                                 : 1 h 31 min
Overall bit rate mode                    : Variable
Overall bit rate                         : 3 963 kb/s
Movie name                               : Venom (2018) 720p HD-TS Hindi Dubbed ~SkyMoviesHD Team
Video
ID                                       : 1
Format                                   : AVC
Format/Info                              : Advanced Video Codec
Duration                                 : 1 h 31 min
Bit rate mode                            : Variable
Bit rate                                 : 3 835 kb/s
Maximum bit rate                         : 4 000 kb/s
Width                                    : 1 280 pixels
Height                                   : 544 pixels
Display aspect ratio                     : 2.35:1
Frame rate mode                          : Constant
Frame rate                               : 23.976 (24000/1001) FPS
Standard                                 : Component
Color space                              : YUV
Chroma subsampling                       : 4:2:0
Bit depth                                : 8 bits
Scan type                                : Progressive
Bits/(Pixel*Frame)                       : 0.230
Stream size                              : 2.46 GiB (97%)
Title                                    : ~Ranvijay
Language                                 : English
Default                                  : Yes
Forced                                   : No

Audio
ID                                       : 2
Format                                   : AAC
Format/Info                              : Advanced Audio Codec
Format profile                           : LC
Codec ID                                 : A_AAC-2
Duration                                 : 1 h 31 min
Bit rate                                 : 128 kb/s
Channel(s)                               : 2 channels
Channel positions                        : Front: L R
Sampling rate                            : 48.0 kHz
Frame rate                               : 46.875 FPS (1024 SPF)
Compression mode                         : Lossy
Stream size                              : 84.1 MiB (3%)
Title                                    : ~Ranvijay
Language                                 : Hindi
Default                                  : Yes
Forced                                   : Yes









New Latest HD Movies Download Link :-  http://skymovieshd.in
***********************************

Category:Movies > Hollywood Dub
Lang:Hindi
Total Size:1.15 GB
Info Hash:f19de1cf540d78ef71736644b8499a4adfe589f3
Added By:Hdrex
Date Added:06-10-2018 14:47:19
Views:1,082
Hits:132

Download Torrent

Ratings:Not Yet Rated (Log in to rate it)


Tracker:
udp://tracker.coppersurfer.tk:6969/announce


File List: 


Comments

No comments still posted

Powered by 10 Hamsters v2-svn -|- Page Generated In 0.789160 secs.
-|- RSS FEED
Theme By: Nikkbu